Берсерк: Золотой век. Фильм 3: Сошествие / Berserk: Ougon Jidai Hen III - Kourin / Berserk Golden Age Arc III: Descent (Кубока Тосиюки) [Movie] [2013, приключения, фэнтези, драма, BDRip] [Reanimedia]

Страницы:  1

Ответить
Автор
Сообщение

ZIP_sq

RG VGW

Стаж: 12 лет

Сообщений: 1543

ZIP_sq · 20-Дек-14 02:20 (4 года 7 месяцев назад, ред. 21-Дек-14 18:00)

Берсерк: Золотой век. Фильм 3: Сошествие
- - - - - - - - - -
Оригинальное Название: ベルセルク 黄金時代篇III 降臨
Английское Название: Berserk: Ougon Jidai Hen III - Kourin
Год Выпуска: 2013 г.
Cтрана: Япония
Жанр: приключения, фэнтези, драма
Продолжительность: 01:48:10
Перевод: Профессиональный (полное дублирование) [Reanimedia]
Субтитры: Русский хардсаб [надписи]
Режиссер: Кубока Тосиюки
Автор оригинала: Миура Кэнтаро
Студия:

Описание:
Ни возвращение Гатса в отряд Соколов, ни освобождение Гриффитса не приносят облегчения: истерзанный пытками Гриффитс теперь — лишь тень прежнего себя, а члены отряда, когда-то переживавшие вместе труднейшие времена, теперь готовы пойти разными дорогами… Однако дух иногда сломить гораздо трудней, чем плоть: мечты и стремления великого некогда человека приобретают, преломляясь сквозь возможности самых сильных мира сего, черные крылья ужаса и боли. Грядет Затмение, и вместе с ним приближается самая главная битва.
Нынешний цикл полнометражных фильмов — второй подход японских аниматоров к произведению (первым был ТВ-сериал 1997 года); на сей раз крупнобюджетная экранизация охватит, по меньшей мере, всю сюжетную арку «Золотой век». Известная множеством непохожих друг на друга, но всегда раздвигающих рамки анимационного искусства работ («Воспоминания о будущем», «Железобетон», «Первый отряд: момент истины»), Studio 4°C выбрала для фильма технологию, сочетающую компьютерную и рисованную анимацию. Вкупе с мастерством художников и темпераментом режиссера это позволило воплотить на экране уникальные по хореографии массовые сцены битв и близкую борьбу непростых характеров, созданных одним из самых уважаемых японских авторов, работающих в жанре фэнтези — Кэнтаро Миурой.
Манга (графическая новелла) «Берсерк», вышедшая (и продолжающая выходить) многомиллионными тиражами по всему миру, по праву считается новой классикой фэнтези; у себя на родине она знаменита не меньше, чем «Властелин колец». В России мангу выпускает издательство «Эксмо» (в продаже уже 7 томов).


Источник: Blu-Ray Disc [thanks АнимеЦех]
Качество: BDRip
Формат: MP4
Видео кодек: H.264
Аудио кодек: AAC
Видео: MPEG-4 AVC Video (H.264) / 480х208 / 463 kbps / 23.976 fps / 16:9 / Main Profile 3.0
Аудио: AAC, 2 channels, 48 kHz, 128 kbps

Отличия от существующих раздач
Сравнение с https://rutracker.org/forum/viewtopic.php?t=4477207
- там субтитры, тут озвучка (дубляж)

Другие фильмы цикла "Берсерк: Золотой век"

MediaInfo
Код:
General
Complete name                       : D:\PSP\Раздачи\Фильмы\Берсерк.Золотой.век.Фильм.3.Сошествие.2013.BDRip.mp4
Format                              : MPEG-4
Format profile                      : Base Media
Codec ID                            : isom
File size                           : 460 MiB
Duration                            : 1h 48mn
Overall bit rate mode               : Variable
Overall bit rate                    : 595 Kbps
Encoded date                        : UTC 2014-12-19 22:44:42
Tagged date                         : UTC 2014-12-19 22:44:42
Video
ID                                  : 1
Format                              : AVC
Format/Info                         : Advanced Video Codec
Format profile                      : [email protected]
Format settings, CABAC              : Yes
Format settings, ReFrames           : 3 frames
Codec ID                            : avc1
Codec ID/Info                       : Advanced Video Coding
Duration                            : 1h 48mn
Bit rate                            : 463 Kbps
Maximum bit rate                    : 4 398 Kbps
Width                               : 480 pixels
Height                              : 208 pixels
Display aspect ratio                : 2.35:1
Frame rate mode                     : Constant
Frame rate                          : 23.976 fps
Color space                         : YUV
Chroma subsampling                  : 4:2:0
Bit depth                           : 8 bits
Scan type                           : Progressive
Bits/(Pixel*Frame)                  : 0.194
Stream size                         : 359 MiB (78%)
Writing library                     : x264 core 130 r2273 b3065e6
Encoding settings                   : cabac=1 / ref=3 / deblock=1:-2:-1 / analyse=0x1:0x131 / me=umh / subme=9 / psy=1 / psy_rd=1.00:0.20 / mixed_ref=1 / me_range=16 / chroma_me=1 / trellis=2 / 8x8dct=0 / cqm=0 / deadzone=21,11 / fast_pskip=0 / chroma_qp_offset=-3 / threads=12 / lookahead_threads=1 / sliced_threads=0 / nr=0 / decimate=0 / interlaced=0 / bluray_compat=0 / constrained_intra=0 / bframes=3 / b_pyramid=0 / b_adapt=2 / b_bias=0 / direct=1 / weightb=1 / open_gop=0 / weightp=2 / keyint=250 / keyint_min=23 / scenecut=40 / intra_refresh=0 / rc=cqp / mbtree=0 / qp=18 / ip_ratio=1.40 / pb_ratio=1.30 / aq=0
Encoded date                        : UTC 2014-12-19 22:44:42
Tagged date                         : UTC 2014-12-19 22:44:58
Audio
ID                                  : 2
Format                              : AAC
Format/Info                         : Advanced Audio Codec
Format profile                      : LC
Codec ID                            : 40
Duration                            : 1h 48mn
Bit rate mode                       : Variable
Bit rate                            : 127 Kbps
Maximum bit rate                    : 204 Kbps
Channel(s)                          : 2 channels
Channel positions                   : Front: L R
Sampling rate                       : 48.0 KHz
Compression mode                    : Lossy
Delay relative to video             : 83ms
Stream size                         : 98.6 MiB (21%)
Encoded date                        : UTC 2014-12-19 22:44:55
Tagged date                         : UTC 2014-12-19 22:44:58

Скриншоты


Если вы скачали данный релиз и хотите выложить его на другом ресурсе -
пожалуйста, указывайте первоисточник
- R.G. Video Games World
Download
Для скачивания .torrent файлов необходима регистрация
Сайт не распространяет и не хранит электронные версии произведений, а лишь предоставляет доступ к создаваемому пользователями каталогу ссылок на торрент-файлы, которые содержат только списки хеш-сумм
[Профиль]  [ЛС] 

Mendel17

Стаж: 6 лет 7 месяцев

Сообщений: 16


Mendel17 · 03-Янв-15 23:16 (спустя 14 дней)

Да,,, однако. Не ожидал. Первые два фильма, еще можно посмотреть, но вот последний третий, из-за такой концовки, смотреть НЕ СТОИТ. ОДНОЗНАЧНО НЕ СТОИТ. Мне не понравлось. Я ожидал лучшего. Нагородили, что создатели наверное сами плевались. Может фильм снят по какому то старинному повествованию, и нельзя было отойти от сюжета? Непонятно.
[Профиль]  [ЛС] 

Dashie27

Стаж: 6 лет 8 месяцев

Сообщений: 10

Dashie27 · 16-Янв-16 08:23 (спустя 1 год)

Вообще, все это - предыстория. И по манге снято, некоторые моменты упущены конечно, но круто.
[Профиль]  [ЛС] 
 
Ответить
Loading...
Error