Наемный убийца / Torpedo / Сезон: 1 / Серии: 1-2 из 2 (Трюгве Аллистер Дисен / Trygve Allister Diesen) [2007, Норвегия, детектив, триллер, криминал, драма, DVDRip] VO (Project Web Money)

Страницы:  1

Ответить
Автор
Сообщение

лорди74

Стаж: 9 лет 5 месяцев

Сообщений: 1747

лорди74 · 27-Фев-15 10:23 (4 года 4 месяца назад, ред. 24-Мар-15 00:29)

Наемный убийца / Torpedo
Год выпуска: 2007
Страна: Норвегия
Жанр: детектив, триллер, криминал, драма
Продолжительность: ~01:28:00
Перевод: Любительский (одноголосый закадровый) Project_Web_Money
Режиссёр: Трюгве Аллистер Дисен / Trygve Allister Diesen
В ролях: Йорген Лангхелле, Деян Чукич, Лиса Верлиндер, Аксель Хенни, Кюрре Хёуген Сюднесс, Гард Б. Эйдсвольд, Ребекка Карийорд, Аннеке фон дер Липпе, Мортен Фальдос, Свен Нордин, Фридтьов Сохейм, Дарко Кукич, Даль Мария Шварц, Нильс Оле Офтебро
Описание: У коллектора Терье выдался крайне напряжённый день. Он допустил серьёзный промах на работе, из-за чего у него возник конфликт с главой сербской криминальной группировки Седомиром. Но настоящая трагедия ожидает его дома, где он обнаруживает свою жену Сиссель убитой. Терье пойдёт на всё, чтобы найти убийцу...но правда шокирует даже его. В лучших традициях скандинавского кинематографа!!!
Монтаж,спонсирование и сведение звука: лорди74
Благодарности adelstein_s за перевод и Sasha 1984 за рипы!!!
Ссылка на предыдущие и альтернативные раздачи: https://rutracker.org/forum/tracker.php?f=189,2366,842,819&nm=Torpedo
Сэмпл: http://multi-up.com/1035398
Качество: DVDRip
Формат: AVI
Видео: 704x384 (16:9), 25 fps, XviD, ~1892 Kbps avg, 0,28 bit/pixel
Аудио: 48 kHz, AC3 Dolby Digital, 6 ch, ~448 kbps
Субтитры: отутствуют
Реклама: Отсутствует
MediaInfo
ФИЛЬМЫ\Наемный Убийца_Torpedo_2007_VO\01_serya_VO.avi
Формат : AVI
Формат/Информация : Audio Video Interleave
Размер файла : 1,46 Гбайт
Продолжительность : 1 ч. 29 м.
Общий поток : 2349 Кбит/сек
Программа кодирования : VirtualDubMod 1.5.10.2 (build 2540/release)
Библиотека кодирования : VirtualDubMod build 2540/release
Видео
Идентификатор : 0
Формат : MPEG-4 Visual
Профиль формата : Advanced [email protected]
Параметр BVOP формата : 2
Параметр QPel формата : Нет
Параметр GMC формата : Без точки перехода
Параметр матрицы формата : Default (H.263)
Идентификатор кодека : XVID
Идентификатор кодека/Подсказка : XviD
Продолжительность : 1 ч. 29 м.
Битрейт : 1892 Кбит/сек
Ширина : 704 пикс.
Высота : 384 пикс.
Соотношение сторон : 16:9
Частота кадров : 25,000 кадр/сек
Цветовое пространство : YUV
Подвыборка цветности : 4:2:0
Битовая глубина : 8 бит
Тип развёртки : Прогрессивная
Метод сжатия : С потерями
Бит/(Пиксели*Кадры) : 0.280
Размер потока : 1,18 Гбайт (81%)
Библиотека кодирования : XviD 64
Аудио
Идентификатор : 1
Формат : AC-3
Формат/Информация : Audio Coding 3
Расширение режима : CM (complete main)
Идентификатор кодека : 2000
Продолжительность : 1 ч. 29 м.
Вид битрейта : Постоянный
Битрейт : 448 Кбит/сек
Каналы : 6 каналов
Расположение каналов : Front: L C R, Side: L R, LFE
Частота : 48,0 КГц
Битовая глубина : 16 бит
Метод сжатия : С потерями
Размер потока : 285 Мбайт (19%)
Выравнивание : Разделение по промежуткам
Продолжительность промежутка : 40 мс. (1,00 видеокадр)
Время предзагрузки промежутка : 500 ms
Скриншоты
Download
Для скачивания .torrent файлов необходима регистрация
Сайт не распространяет и не хранит электронные версии произведений, а лишь предоставляет доступ к создаваемому пользователями каталогу ссылок на торрент-файлы, которые содержат только списки хеш-сумм
[Профиль]  [ЛС] 

Казанова Инквизитор

Стаж: 11 лет 6 месяцев

Сообщений: 70

Казанова Инквизитор · 28-Фев-15 11:12 (спустя 1 день)

Подпишусь. Попозже взгляну на торпеду..
[Профиль]  [ЛС] 

SOLDLUCK2

Стаж: 9 лет 1 месяц

Сообщений: 668

SOLDLUCK2 · 28-Фев-15 19:39 (спустя 8 часов)

Цитата:
из-за чего у него возник конфликт с главой сербской криминальной группировки Седомиром
Интересно, удастся ли ему по колориту уделать легендарных Мило и Радована?
[Профиль]  [ЛС] 

igorrr2008

Стаж: 10 лет 4 месяца

Сообщений: 85

igorrr2008 · 01-Мар-15 11:49 (спустя 16 часов)

Спасибо! Конечно не шедевр, но посмотрел с удовольствием. Концовка довольно жесткая. Присутствует довольно много ненормативной лексики (надо бы это указывать).
[Профиль]  [ЛС] 

skvo_i_74

Стаж: 4 года 4 месяца

Сообщений: 21


skvo_i_74 · 05-Мар-15 06:27 (спустя 3 дня)

igorrr2008 писал(а):
67035205Присутствует довольно много ненормативной лексики (надо бы это указывать).
Это видимо шутка такая,за 3 часа пяток раз,в наше время это уровень канала ТНТ "Камеди клаб"
[Профиль]  [ЛС] 

krasstar

Стаж: 9 лет 5 месяцев

Сообщений: 101

krasstar · 16-Мар-15 22:58 (спустя 11 дней)

Достаточно сильный по воздействию фильм. Раздающему спасибо.
[Профиль]  [ЛС] 

Skarletty

Стаж: 8 лет 9 месяцев

Сообщений: 826

Skarletty · 04-Май-15 15:46 (спустя 1 месяц 18 дней)

Какой же нудный фильм! И даже концовка не стоит того, чтобы его смотреть.
Что ж за привычка появилась часовой сюжет растягивать на три... зачем? Ходит этот герой туда-сюда, воздух сотрясает. Уныло и скучно.
Но за возможно оценить спасибо.
[Профиль]  [ЛС] 

history

Стаж: 10 лет 1 месяц

Сообщений: 736

history · 03-Сен-15 18:19 (спустя 3 месяца 30 дней)

На мой взгляд вполне можно было обойтись и без мата. Он выглядит как-то лишне и не органично. С удовольствием посмотрел несколько фильмов с вашей озвучкой и везде все было замечательно.
[Профиль]  [ЛС] 

GALINA81

Стаж: 4 года 4 месяца

Сообщений: 787


GALINA81 · 18-Дек-15 00:46 (спустя 3 месяца 14 дней, ред. 18-Дек-15 09:32)

Фильм сильно затянут, но не плох. В конце смотреть на работу двух суперменов было прикольно (уже становилось смешно). Еще порадовала реакция ГГ на измену жены в контексте его отношений с ее лучшей подругой. Помошника ГГ играет Аксель Хенни, который мне очень понравился в "Охотники за головами", прекрасный актер. А вот сам ГГ не впечатлил ни внешне, ни как актер. Совершенно безликий. В целом фильм смотреть можно. Спасибо.
[Профиль]  [ЛС] 

lisicium

Стаж: 8 лет 9 месяцев

Сообщений: 29

lisicium · 28-Дек-16 08:20 (спустя 1 год)

Skarletty писал(а):
67697934Какой же нудный фильм! И даже концовка не стоит того, чтобы его смотреть .
Вот точно. Унылое гуа... Сценарий для медленно соображающих и недалеких.
[Профиль]  [ЛС] 

seleorus

Стаж: 9 лет 2 месяца

Сообщений: 467

seleorus · 06-Янв-17 18:19 (спустя 9 дней, ред. 06-Янв-17 18:19)

lisicium писал(а):
72119119
Skarletty писал(а):
67697934Какой же нудный фильм! И даже концовка не стоит того, чтобы его смотреть .
Вот точно. Унылое гуа... Сценарий для медленно соображающих и недалеких.
По проекту "Земля и люди" Божьего ОКБ - таких в людстве всеподавляющее большинство. Таков божий Замысел. Длится будет сие Царство Животных до очередного пролета карлика Немезиды ... с периодом подлета = 1 раз в 26 млн лет. Тярпитя...
[Профиль]  [ЛС] 

.VIKA.

Стаж: 9 лет 2 месяца

Сообщений: 641

.VIKA. · 15-Мар-17 08:12 (спустя 2 месяца 8 дней, ред. 15-Мар-17 08:12)

так себе фильм , особенно начало :)))
[Профиль]  [ЛС] 

Wentworth_Miller

Moderator

Стаж: 10 лет 4 месяца

Сообщений: 7473

Wentworth_Miller · 14-Июн-18 00:36 (спустя 1 год 2 месяца)



проверено
[Профиль]  [ЛС] 
 
Ответить
Loading...
Error