Мегалобокс / Megalo Box (Морияма Ё) [TV] [13 из 13] [2018, экшен, фантастика, повседневность, спорт, драма, WEBRip] [Субтитры]

Страницы:  1

Ответить
Автор
Сообщение

Black Flame

Старожил

Стаж: 12 лет 9 месяцев

Сообщений: 188

Black Flame · 03-Авг-18 05:08 (11 месяцев назад)

Мегалобокс
Оригинальное название: Megalo Box
Период трансляции: c 06.04.2018 по 29.06.2018
Страна: Япония
Жанр: экшен, фантастика, повседневность, спорт, драма
Продолжительность: 13 эп. по ~25 мин.
Режиссер: Морияма Ё
Студия:
Перевод: Субтитры от SovetRomantica
Переводчик: Wolfgang
Редактор: Jane Cooper
Описание: Не имеющий идентификационной карты юноша по кличке JD (Junk Dog) участвует в подпольных боях на боксёрском ринге. За неимением выбора он использует единственный свой талант как средство для заработка в договорных матчах под руководством тренера Намбу, но жаждет схлестнуться с настоящими профи на легальной основе. На его удачу, в ближайшем мегаполисе собирается проходить беспрецедентное, по меркам любого боксёра, мероприятие — «Мегалония», собирающее на своей арене лучших из лучших, движимых желанием получить звание «сильнейшего». Конечно же, наш герой хочет во что бы то ни стало туда попасть, чтобы доказать самому себе, чего на самом деле стоит его жизнь.
Список эпизодов
1. Buy or Die?
2. The Man Only Dies Once
3. Gear Is Dead
4. Let`s Dance with Death
5. The Man from Death
6. Until the Last Dog Dies
7. The Road to Death
8. Deadline of the Dream
9. A Dead Flower Shall Never Bloom
10. The Die Is Cast
11. A Dead March
12. Leap over the Edge of Death
13. Born to Die

Качество видео: WEBRip
Формат: MP4
Видео кодек: H.264
Аудио кодек: AAC
Видео: MPEG4 Video (H264) 480x272 23.976fps 511kbps
Аудио: AAC 44100Hz stereo 128kbps
MediaInfo
Format : MPEG-4
Format profile : Base Media
Codec ID : isom (isom/avc1)
File size : 112 MiB
Duration : 24 min
Overall bit rate mode : Variable
Overall bit rate : 643 kb/s
Encoded date : UTC 2018-07-22 15:21:38
Tagged date : UTC 2018-07-22 15:21:38
Video
ID : 1
Format : AVC
Format/Info : Advanced Video Codec
Format profile : [email protected]
Format settings, CABAC : Yes
Format settings, ReFrames : 2 frames
Codec ID : avc1
Codec ID/Info : Advanced Video Coding
Duration : 24 min
Bit rate : 512 kb/s
Maximum bit rate : 2 360 kb/s
Width : 480 pixels
Height : 272 pixels
Display aspect ratio : 16:9
Frame rate mode : Constant
Frame rate : 23.976 (24000/1001) FPS
Original frame rate : 23.976 (23976/1000) FPS
Color space : YUV
Chroma subsampling : 4:2:0
Bit depth : 8 bits
Scan type : Progressive
Bits/(Pixel*Frame) : 0.164
Stream size : 89.4 MiB (80%)
Writing library : x264 core 65 r999kMod cc51047
Encoding settings : cabac=1 / ref=2 / deblock=1:-2:-1 / analyse=0x1:0x131 / me=umh / subme=7 / psy_rd=1.0:0.0 / mixed_ref=1 / me_range=16 / chroma_me=1 / trellis=2 / 8x8dct=0 / cqm=0 / deadzone=21,11 / chroma_qp_offset=-2 / threads=2 / thread_queue=2 / nr=0 / decimate=0 / mbaff=0 / bframes=3 / b_pyramid=0 / b_adapt=1 / b_bias=0 / direct=3 / wpredb=1 / keyint=250 / keyint_min=25 / scenecut=40(pre) / rc=2pass / bitrate=512 / ratetol=1.0 / qcomp=0.60 / qpmin=10 / qpmax=51 / qpstep=4 / cplxblur=20.0 / qblur=0.5 / ip_ratio=1.40 / pb_ratio=1.30 / aq=1:1.00
Encoded date : UTC 2018-07-22 15:21:38
Tagged date : UTC 2018-07-22 15:21:48
Audio
ID : 2
Format : AAC
Format/Info : Advanced Audio Codec
Format profile : LC
Codec ID : 40
Duration : 24 min
Bit rate mode : Variable
Bit rate : 128 kb/s
Maximum bit rate : 176 kb/s
Channel(s) : 2 channels
Channel positions : Front: L R
Sampling rate : 44.1 kHz
Frame rate : 43.066 FPS (1024 spf)
Compression mode : Lossy
Stream size : 22.4 MiB (20%)
Encoded date : UTC 2018-07-22 15:21:47
Tagged date : UTC 2018-07-22 15:21:48
Скриншоты
Download
Для скачивания .torrent файлов необходима регистрация
Сайт не распространяет и не хранит электронные версии произведений, а лишь предоставляет доступ к создаваемому пользователями каталогу ссылок на торрент-файлы, которые содержат только списки хеш-сумм
[Профиль]  [ЛС] 

comunarius

Стаж: 11 лет 2 месяца

Сообщений: 16


comunarius · 13-Июн-19 22:41 (спустя 10 месяцев)

Классная Аниме. В духе анимешной классики. Суровая и атмосферная, с каплей грусти.
[Профиль]  [ЛС] 
 
Ответить
Loading...
Error