Моя геройская академия (ТВ-3) / Boku no Hero Academia (2018) / My Hero Academia Season 3 (Нагасаки Кэндзи) [TV] [25 из 25] [2018, приключения, комедия, сёнен, HDTVRip] [Субтитры]

Страницы:  1

Ответить
Автор
Сообщение

Black Flame

Старожил

Стаж: 12 лет 9 месяцев

Сообщений: 188

Black Flame · 27-Окт-18 17:09 (8 месяцев назад)

Моя геройская академия (ТВ-3)
Оригинальное название: Boku no Hero Academia (2018)
Английское название: My Hero Academia Season 3
Период трансляции: c 07.04.2018 по 29.09.2018
Страна: Япония
Жанр: приключения, комедия, сёнен
Продолжительность: 25 эп. по 25 мин.
Режиссер: Нагасаки Кэндзи
Студия:
Перевод: Субтитры от [YakuSub Studio]
Переводчик/Редактор: Aero
Оформление: Nika_Elrik
Описание: За время, проведённое в геройской академии Юэй, ученики класса 1-А научились многому. За год с ними произошла уйма событий — экзамены и многочисленные битвы со злодеями. Однако, после сдачи годовых экзаменов класс решили отправить в летний тренировочный лагерь, где учителя будут давить на учеников, дабы они справились со всеми трудностями. Пройдёт ли эта школьная поездка тихо и мирно или обернётся очередным побоищем?
Список эпизодов
1. Game Start
2. Wild, Wild Pussycats
3. Kota
4. My Hero
5. Drive It Home, Iron Fist!!!
6. Roaring Upheaval
7. What a Twist!
8. From Iida to Midoriya
9. All For One
10. Symbol of Peace
11. One For All
12. End of the Beginning, Beginning of the End
13. Moving into Dorms
14. Create Those Ultimate Moves
15. The Test
16. Shiketsu High Lurking
17. Class 1-A
18. RUSH!
19. Rescue Exercises
20. Special Episode: Save the World with Love!
21. What's the Big Idea?
22. A Talk about Your Quirk
23. Deku vs. Kacchan, Part 2
24. A Season for Encounters
25. Unrivaled

Качество видео: HDTVRip
Формат: MP4
Видео кодек: H.264
Аудио кодек: AAC
Видео: MPEG4 Video (H264) 480x272 23.976fps 511kbps
Аудио: AAC 48000Hz stereo 128kbps
MediaInfo
Format : MPEG-4
Format profile : Base Media
Codec ID : isom (isom/avc1)
File size : 109 MiB
Duration : 23 min
Overall bit rate mode : Variable
Overall bit rate : 644 kb/s
Encoded date : UTC 2018-09-22 15:07:21
Tagged date : UTC 2018-09-22 15:07:21
Video
ID : 1
Format : AVC
Format/Info : Advanced Video Codec
Format profile : [email protected]
Format settings, CABAC : Yes
Format settings, ReFrames : 2 frames
Codec ID : avc1
Codec ID/Info : Advanced Video Coding
Duration : 23 min
Bit rate : 512 kb/s
Maximum bit rate : 1 637 kb/s
Width : 480 pixels
Height : 272 pixels
Display aspect ratio : 16:9
Frame rate mode : Constant
Frame rate : 23.976 (24000/1001) FPS
Color space : YUV
Chroma subsampling : 4:2:0
Bit depth : 8 bits
Scan type : Progressive
Bits/(Pixel*Frame) : 0.164
Stream size : 86.3 MiB (80%)
Writing library : x264 core 65 r999kMod cc51047
Encoding settings : cabac=1 / ref=2 / deblock=1:-2:-1 / analyse=0x1:0x131 / me=umh / subme=7 / psy_rd=1.0:0.0 / mixed_ref=1 / me_range=16 / chroma_me=1 / trellis=2 / 8x8dct=0 / cqm=0 / deadzone=21,11 / chroma_qp_offset=-2 / threads=2 / thread_queue=2 / nr=0 / decimate=0 / mbaff=0 / bframes=3 / b_pyramid=0 / b_adapt=1 / b_bias=0 / direct=3 / wpredb=1 / keyint=250 / keyint_min=25 / scenecut=40(pre) / rc=2pass / bitrate=512 / ratetol=1.0 / qcomp=0.60 / qpmin=10 / qpmax=51 / qpstep=4 / cplxblur=20.0 / qblur=0.5 / ip_ratio=1.40 / pb_ratio=1.30 / aq=1:1.00
Encoded date : UTC 2018-09-22 15:07:21
Tagged date : UTC 2018-09-22 15:07:30
Audio
ID : 2
Format : AAC
Format/Info : Advanced Audio Codec
Format profile : LC
Codec ID : 40
Duration : 23 min
Bit rate mode : Variable
Bit rate : 129 kb/s
Maximum bit rate : 147 kb/s
Channel(s) : 2 channels
Channel positions : Front: L R
Sampling rate : 48.0 kHz
Frame rate : 46.875 FPS (1024 spf)
Compression mode : Lossy
Stream size : 21.7 MiB (20%)
Encoded date : UTC 2018-09-22 15:07:28
Tagged date : UTC 2018-09-22 15:07:30
Скриншоты
Серия состоит из:
1. Моя геройская академия [ТВ-1] - ТВ (13 эп.), адаптация манги, 2016
2. Моя геройская академия OVA - OVA (2 эп.), адаптация манги, 2016
3. Моя геройская академия [ТВ-2] - ТВ (25 эп.), продолжение, 2017
4. Моя геройская академия (фильм) - п/ф, продолжение, 2018
5. Моя геройская академия [ТВ-3] - ТВ (25 эп.), продолжение, 2018
Download
Для скачивания .torrent файлов необходима регистрация
Сайт не распространяет и не хранит электронные версии произведений, а лишь предоставляет доступ к создаваемому пользователями каталогу ссылок на торрент-файлы, которые содержат только списки хеш-сумм
[Профиль]  [ЛС] 
 
Ответить
Loading...
Error